Pages

Tuesday, October 18, 2011

#Download #Movie - Arena 2011 DvDrip



Image

Image
Image



  Arena.2011.DvDrip.XviD-nCODE

Format                           : AVI
Format/Info                      : Audio Video Interleave
File size                        : 701 MiB
Duration                         : 1h 34mn
Overall bit rate                 : 1 039 Kbps
Writing application              : Nandub v1.0rc2
Writing library                  : Nandub build 1853/release
Comment                          : ViSiT nCODE @ WareZ-bb

Video
ID                               : 0
Format                           : MPEG-4 Visual
Format profile                   : Advanced Simple@L5
Format settings, BVOP            : 2
Format settings, QPel            : No
Format settings, GMC             : No warppoints
Format settings, Matrix          : Default (H.263)
Codec ID                         : XVID
Codec ID/Hint                    : XviD
Duration                         : 1h 34mn
Bit rate                         : 902 Kbps
Width                            : 640 pixels
Height                           : 272 pixels
Display aspect ratio             : 2.35:1
Frame rate                       : 23.976 fps
Color space                      : YUV
Chroma subsampling               : 4:2:0
Bit depth                        : 8 bits
Scan type                        : Progressive
Compression mode                 : Lossy
Bits/(Pixel*Frame)               : 0.216
Stream size                      : 608 MiB (87%)
Writing library                  : XviD 1.2.1 (UTC 2008-12-04)

Audio
ID                               : 1
Format                           : MPEG Audio
Format version                   : Version 1
Format profile                   : Layer 3
Mode                             : Joint stereo
Mode extension                   : MS Stereo
Codec ID                         : 55
Codec ID/Hint                    : MP3
Duration                         : 1h 34mn
Bit rate mode                    : Constant
Bit rate                         : 128 Kbps
Channel(s)                       : 2 channels
Sampling rate                    : 48.0 KHz
Compression mode                 : Lossy
Stream size                      : 86.3 MiB (12%)
Alignment                        : Split accross interleaves
Interleave, duration             : 42 ms (1.00 video frame)
Interleave, preload duration     : 500 ms
Writing library                  : LAME3.98r
Encoding settings                : -m j -V 4 -q 2 -lowpass 17 -b 128

thanks to CM8 for the DVDR
cropped, resized , ran a few filters to denoise and clean the video
muxed for nandub to ensure standalone compatibility
looks a cool movie, hope you njoy!


Image
Image

Image

Image

Image

Image

Image

Image

Image

Image
Image

Image

http://www.wupload.com/file/387161269/Arena.2011.dvdrip.xvid-ncode.avi
OR
http://safelinking.net/d/886a7fb164


Image


http://d01.megashares.com/index.php?d01=vv4xxph


Image


https://www.rapidshare.com/files/1577012634/Arena.2011.dvdrip.xvid_ncode.avi


Image


http://safelinking.net/d/effaa7347d


Image


http://www.fileserve.com/file/3yr9tsk/Arena.2011.dvdrip.xvid-ncode.avi
OR
http://safelinking.net/d/19c1e44020


Image


http://www.filesonic.com/file/2541792251/Arena.2011.dvdrip.xvid-ncode.avi
OR
http://safelinking.net/d/cf4e667b86


Image


http://www.filejungle.com/f/4zKS5P/Arena.2011.dvdrip.xvid-ncode.avi


Image


http://bitshare.com/files/ttotghg2/Arena.2011.dvdrip.xvid-ncode.avi.html

No comments:

Post a Comment