Pages

Wednesday, October 26, 2011

#Download #Movie - The Hangover 2 2011 DVDrip.XviD-nCODE



Image


Image
 
Image

Image
Image

Image

Image
Image

Image





http://www.wupload.com/file/508178306/The.Hangover.Part.II.2011.DVDRip.XviD-LTW.avi
OR
http://safelinking.net/d/039a690491


Image


http://d01.megashares.com/?d01=1x5z33Q


Image


https://www.rapidshare.com/files/3526691518/The.Hangover.Part.II.2011.DVDRip.XviD_LTW.avi


Image


http://safelinking.net/d/131e6dad2f
http://safelinking.net/d/70d3d6aa6c


Image


http://www.fileserve.com/file/4QePU48/The.Hangover.Part.II.2011.DVDRip.XviD-LTW.avi
OR
http://safelinking.net/d/3039b8241d


Image


http://www.filesonic.com/file/2730853531/LTWGNFVR2.rar
OR
http://safelinking.net/d/16d597f37c


Image


http://www.filejungle.com/f/UWGTTa/The.Hangover.Part.II.2011.DVDRip.XviD-LTW.avi


    The.Hangover.2.2011.DVDrip.XviD-nCODE


Code:
    The.Hangover.2.2011.DVDrip.XviD-nCODE

Format                           : AVI
Format/Info                      : Audio Video Interleave
File size                        : 700 MiB
Duration                         : 1h 37mn
Overall bit rate                 : 1 003 Kbps
Writing application              : Nandub v1.0rc2
Writing library                  : Nandub build 1853/release
Copyright                        : ViSiT nCODE @ WareZ-BB

Video
ID                               : 0
Format                           : MPEG-4 Visual
Format profile                   : Advanced Simple@L5
Format settings, BVOP            : 2
Format settings, QPel            : No
Format settings, GMC             : No warppoints
Format settings, Matrix          : Default (H.263)
Codec ID                         : XVID
Codec ID/Hint                    : XviD
Duration                         : 1h 37mn
Bit rate                         : 866 Kbps
Width                            : 640 pixels
Height                           : 272 pixels
Display aspect ratio             : 2.35:1
Frame rate                       : 23.976 fps
Color space                      : YUV
Chroma subsampling               : 4:2:0
Bit depth                        : 8 bits
Scan type                        : Progressive
Compression mode                 : Lossy
Bits/(Pixel*Frame)               : 0.207
Stream size                      : 604 MiB (86%)
Writing library                  : XviD 1.2.1 (UTC 2008-12-04)

Audio
ID                               : 1
Format                           : MPEG Audio
Format version                   : Version 1
Format profile                   : Layer 3
Mode                             : Joint stereo
Mode extension                   : MS Stereo
Codec ID                         : 55
Codec ID/Hint                    : MP3
Duration                         : 1h 37mn
Bit rate mode                    : Constant
Bit rate                         : 128 Kbps
Channel(s)                       : 2 channels
Sampling rate                    : 48.0 KHz
Compression mode                 : Lossy
Stream size                      : 89.3 MiB (13%)
Alignment                        : Split accross interleaves
Interleave, duration             : 42 ms (1.00 video frame)
Interleave, preload duration     : 500 ms
Writing library                  : LAME3.98r
Encoding settings                : -m j -V 4 -q 2 -lowpass 17 -b 128

fixed AR , ran a few filters, denoiser, etc
 framerate was 27.970fps, now its 23.976fps, hope you njoy!


Image
Image

Image

Image

Image

Image

Image
Image

Image


http://www.wupload.com/file/1104522221/The.Hangover.2.2011.DVDrip.XviD-nCODE.avi
OR
http://safelinking.net/d/b6726a70b3


Image


http://d01.megashares.com/index.php?d01=YReTPo7


Image


https://www.rapidshare.com/files/1060731912/The.Hangover.2.2011.DVDrip.XviD_nCODE.avi


Image


http://safelinking.net/d/0da098aa65


Image


http://www.fileserve.com/file/eN7XgTH/The.Hangover.2.2011.DVDrip.XviD-nCODE.avi
OR
http://safelinking.net/d/83d2cf5b34


Image


http://www.filesonic.com/file/2730841411/The.Hangover.2.2011.DVDrip.XviD-nCODE.rar
OR
http://safelinking.net/d/090d4f6f7e


Image

http://www.filejungle.com/f/zfamQZ/The.Hangover.2.2011.DVDrip.XviD-nCODE.avi


Image


http://bitshare.com/files/30m82udp/The.Hangover.2.2011.DVDrip.XviD-nCODE.avi.html

No comments:

Post a Comment